Jump to content


GREAT WHITE (2021) 1080p BluRay x264 DTS-FGT | ΞΕΧΩΡΙΣΤΟΙ ΥΠΟΤΙΤΛΟΙ


Dalton

Recommended Posts


dhA180o.jpg


gGH2Dbn.png?3

Ελληνικός Τίτλος: -
Είδος Ταινίας: Horror, Thriller
Σκηνοθέτης: Martin Wilson
Σεναριογράφος: Michael Boughen (screenplay)
Ηθοποιοί: Katrina Bowden, Aaron Jakubenko, Kimie Tsukakoshi
Πρεμιέρα: 2021 (USA)
Μετάφραση: g_poli


dbzzNXu.png?2

Μια διασκεδαστική τουριστική πτήση σε μια απομακρυσμένη ατόλη, θα εξελιχθεί σε εφιάλτη για τους πέντε επιβάτες, όταν το υδροπλάνο τους θα καταστραφεί, αφήνοντας τους παγιδευμένους σε μια σωστική λέμβο 100 μίλια μακριά από την ακτή και με ανθρωποφάγους καρχαρίες να παραμονεύουν κάτω από την επιφάνεια.


IMDB.png

 

 


9TykaLh.jpg


uoJL54u.png?2


General
Format                      : Matroska
Format version              : Version 4
File size                   : 8.30 GiB
Duration                    : 1 h 31 min
Overall bit rate            : 13.0 Mb/s
Movie name                  : Great.White.2021.1080p.BluRay.x264.DTS-FGT
Encoded date                : UTC 2021-06-03 08:09:59
Writing application         : mkvmerge v57.0.0 ('Till The End') 64-bit
Writing library             : libebml v1.4.2 + libmatroska v1.6.4
Cover                       : Yes
Attachments                 : cover_land.jpg / small_cover.jpg / small_cover_land.jpg / cover.jpg

Video
ID                          : 1
Format                      : AVC
Format/Info                 : Advanced Video Codec
Format profile              : High@L4.1
Format settings             : CABAC / 4 Ref Frames
Format settings, CABAC      : Yes
Format settings, Reference  : 4 frames
Codec ID                    : V_MPEG4/ISO/AVC
Duration                    : 1 h 31 min
Bit rate                    : 11.5 Mb/s
Width                       : 1 920 pixels
Height                      : 800 pixels
Display aspect ratio        : 2.40:1
Frame rate mode             : Constant
Frame rate                  : 24.000 FPS
Color space                 : YUV
Chroma subsampling          : 4:2:0
Bit depth                   : 8 bits
Scan type                   : Progressive
Bits/(Pixel*Frame)          : 0.312
Stream size                 : 7.34 GiB (88%)
Writing library             : x264 core 148 r2795M aaa9aa8
Encoding settings           : cabac=1 / ref=4 / deblock=1:-2:-2 / analyse=0x3:0x113 / me=umh / subme=9 / psy=1 / psy_rd=1.00:0.15 / mixed_ref=1 / me_range=16 / chroma_me=1 / trellis=2 / 8x8dct=1 / cqm=0 / deadzone=21,11 / fast_pskip=1 / chroma_qp_offset=-3 / threads=24 / lookahead_threads=3 / sliced_threads=0 / nr=0 / decimate=1 / interlaced=0 / bluray_compat=0 / constrained_intra=0 / bframes=3 / b_pyramid=2 / b_adapt=1 / b_bias=0 / direct=3 / weightb=1 / open_gop=0 / weightp=2 / keyint=250 / keyint_min=25 / scenecut=40 / intra_refresh=0 / rc_lookahead=50 / rc=2pass / mbtree=1 / bitrate=11500 / ratetol=1.0 / qcomp=0.60 / qpmin=0 / qpmax=69 / qpstep=4 / cplxblur=20.0 / qblur=0.5 / vbv_maxrate=31250 / vbv_bufsize=31250 / nal_hrd=none / filler=0 / ip_ratio=1.40 / aq=1:1.00
Language                    : English
Default                     : Yes
Forced                      : No

Audio
ID                          : 2
ID in the original source m : 4353 (0x1101)
Format                      : DTS
Format/Info                 : Digital Theater Systems
Codec ID                    : A_DTS
Duration                    : 1 h 31 min
Bit rate mode               : Constant
Bit rate                    : 1 509 kb/s
Channel(s)                  : 6 channels
Channel layout              : C L R Ls Rs LFE
Sampling rate               : 48.0 kHz
Frame rate                  : 93.750 FPS (512 SPF)
Bit depth                   : 16 bits
Compression mode            : Lossy
Stream size                 : 986 MiB (12%)
Title                       : Surround 5.1
Language                    : English
Default                     : No
Forced                      : No
Original source medium      : Blu-ray

Text
ID                          : 3
Format                      : UTF-8
Codec ID                    : S_TEXT/UTF8
Codec ID/Info               : UTF-8 Plain Text
Duration                    : 1 h 17 min
Bit rate                    : 27 b/s
Count of elements           : 669
Stream size                 : 15.7 KiB (0%)
Language                    : English
Default                     : Yes
Forced                      : No


logo.gif


This is the hidden content, please

Link to comment
Share on other sites



  • Replies 0
  • Created
  • Last Reply

Top Posters In This Topic

  • Dalton

    1

Popular Days

Top Posters In This Topic

Popular Days

Create an account or sign in to comment

You need to be a member in order to leave a comment

Create an account

Sign up for a new account in our community. It's easy!

Register a new account

Sign in

Already have an account? Sign in here.

Sign In Now
×
×
  • Create New...