Jump to content


WOLFEN (1981) 1080p BluRay x264-AMIABLE ΞΕΧΩΡΙΣΤΟΙ ΥΠΟΤΙΤΛΟΙ


Dalton

Recommended Posts


xRrQNQu.jpg


gGH2Dbn.png?3

Ελληνικός Τίτλος: Λυκάνθρωποι
Είδος Ταινίας: Horror, Thriller 
Σκηνοθέτης: Michael Wadleigh
Σεναριογράφος: Whitley Strieber (based on the novel by), David Eyre (screen story)
Ηθοποιοί: Albert Finney, Diane Venora, Edward James Olmos
Πρεμιέρα: 24 July 1981     (USA)    
Μετάφραση: dvd


dbzzNXu.png?2

Ο Harry Madox πηγαίνει σε μια μικρή πόλη του Τέξας, όπου βρίσκει δουλειά σε μια εταιρεία ενοικιάσεως μεταχειρισμένων αυτοκινήτων, και βρίσκει δωμάτιο σε ένα ξενοδοχείο. Κατά τη διάρκεια μιας φωτιάς, ο Harry παρατηρεί ότι η τοπική τράπεζα εγκαταλείπεται από εργαζόμενους και φύλακες. Έτσι θα σκεφτεί να διαπράξει μια ληστεία βάζοντας φωτιά στο δωμάτιό του για αντιπερισπασμό. Στο μεταξύ γνωρίσει τη γυναίκα του αφεντικού του, η οποία τον προκαλεί...


IMDB.png

 

 


S5H6tj6.jpg


uoJL54u.png?2


General
Format                      : Matroska
Format version              : Version 2
File size                   : 8.74 GiB
Duration                    : 1 h 54 min
Overall bit rate            : 11.0 Mb/s
Writing application         : mkvmerge v6.6.0 ('The Edge Of The In Between') built on Dec 1 2013 17:55:00
Writing library             : libebml v1.3.0 + libmatroska v1.4.1

Video
ID                          : 1
Format                      : AVC
Format/Info                 : Advanced Video Codec
Format profile              : High@L4.1
Format settings             : CABAC / 5 Ref Frames
Format settings, CABAC      : Yes
Format settings, Reference  : 5 frames
Codec ID                    : V_MPEG4/ISO/AVC
Duration                    : 1 h 54 min
Bit rate                    : 9 460 kb/s
Width                       : 1 920 pixels
Height                      : 800 pixels
Display aspect ratio        : 2.40:1
Frame rate mode             : Constant
Frame rate                  : 23.976 (24000/1001) FPS
Color space                 : YUV
Chroma subsampling          : 4:2:0
Bit depth                   : 8 bits
Scan type                   : Progressive
Bits/(Pixel*Frame)          : 0.257
Stream size                 : 7.37 GiB (84%)
Writing library             : x264 core 146 r2538 121396c
Encoding settings           : cabac=1 / ref=5 / deblock=1:-3:-3 / analyse=0x3:0x113 / me=umh / subme=8 / psy=1 / psy_rd=1.00:0.00 / mixed_ref=1 / me_range=16 / chroma_me=1 / trellis=1 / 8x8dct=1 / cqm=0 / deadzone=21,11 / fast_pskip=1 / chroma_qp_offset=-2 / threads=24 / lookahead_threads=4 / sliced_threads=0 / nr=0 / decimate=1 / interlaced=0 / bluray_compat=0 / constrained_intra=0 / bframes=3 / b_pyramid=2 / b_adapt=2 / b_bias=0 / direct=3 / weightb=1 / open_gop=0 / weightp=2 / keyint=240 / keyint_min=24 / scenecut=40 / intra_refresh=0 / rc_lookahead=50 / rc=2pass / mbtree=1 / bitrate=9460 / ratetol=1.0 / qcomp=0.60 / qpmin=0 / qpmax=69 / qpstep=4 / cplxblur=20.0 / qblur=0.5 / ip_ratio=1.40 / aq=1:1.00
Language                    : English
Default                     : Yes
Forced                      : No
Duration_Source             : General_Duration

Audio
ID                          : 2
Format                      : DTS
Format/Info                 : Digital Theater Systems
Codec ID                    : A_DTS
Duration                    : 1 h 54 min
Bit rate mode               : Constant
Bit rate                    : 1 509 kb/s
Channel(s)                  : 6 channels
ChannelLayout_Original      : C L R Ls Rs LFE
Sampling rate               : 48.0 kHz
Frame rate                  : 93.750 FPS (512 SPF)
Bit depth                   : 24 bits
Compression mode            : Lossy
Stream size                 : 1.20 GiB (14%)
Language                    : English
Default                     : Yes
Forced                      : No
Duration_Source             : General_Duration

Text #1
ID                          : 3
Format                      : UTF-8
Codec ID                    : S_TEXT/UTF8
Codec ID/Info               : UTF-8 Plain Text
Title                       : SDH
Language                    : English
Default                     : No
Forced                      : No

Text #2
ID                          : 4
Format                      : UTF-8
Codec ID                    : S_TEXT/UTF8
Codec ID/Info               : UTF-8 Plain Text
Language                    : English
Default                     : No
Forced                      : No


logo.gif


This is the hidden content, please

  • Like 1
Link to comment
Share on other sites

  • 2 months later...


Create an account or sign in to comment

You need to be a member in order to leave a comment

Create an account

Sign up for a new account in our community. It's easy!

Register a new account

Sign in

Already have an account? Sign in here.

Sign In Now
×
×
  • Create New...