Jump to content


FIRE ISLAND (2022) HDRip XviD AC3-EVO | ENΣΩΜΑΤΩΜΕΝΟΙ ΥΠΟΤΙΤΛΟΙ


PRESIDENT

Recommended Posts

lUaJm3S.jpg

 

 

SjG5FCO.png

 

ΣΚΗΝΟΘΕΣΙΑ : Andrew Ahn
ΣΕΝΑΡΙΟ : Joel Kim Booster
ΗΘΟΠΟΙΟΙ : Joel Kim Booster, Bowen Yang, Margaret Cho
ΕΙΔΟΣ : Comedy, Romance
ΠΡΕΜΙΕΡΑ : 2022

ΜΕΤΑΦΡΑΣΗ : DVD

 

 

UEnMjqN.png

 

Το Fire Island είναι το νησί της Νέας Υόρκης που θεωρείται παράδεισος για γκέι άτομα.

Δύο κολλητοί φίλοι, οι οποίοι πασχίζουν να ανακαλύψουν την ταυτότητά τους, αποφασίζουν πως θέλουν να περάσουν μία βδομάδα στο διάσημο αυτό νησί. Έτσι, ο Noah και ο Howie ξεκινούν την μικρή τους περιπέτεια, η οποία εξελίσσεται με όσα απρόοπτα μπορείς να φανταστείς. Κατά τη διάρκεια των διακοπών τους, και οι δύο φλερτάρουν με άλλα άτομα, εμφανώς πιο ευκατάστατα από αυτούς. Όταν, λοιπόν, ο Howie θα ερωτευτεί, τότε θα ξεκινήσουν και τα προβλήματα στη φιλία του με τον Will.

 

SaTAatP.png

 

a6ziKRt.png

 

 

6lPmD00.png

 

 

 

uoOE3wg.png

 

Spoiler

General
Format : Matroska
Format version : Version 2
File size : 1.39 GiB
Duration : 1 h 45 min
Overall bit rate : 1 887 kb/s

Video
ID : 2
Format : MPEG-4 Visual
Format profile : Advanced Simple@L5
Format settings : BVOP2
Format settings, BVOP : 2
Format settings, QPel : No
Format settings, GMC : No warppoints
Format settings, Matrix : Default (H.263)
Muxing mode : Packed bitstream
Codec ID : V_MS/VFW/FOURCC / XVID
Codec ID/Hint : XviD
Duration : 1 h 45 min
Bit rate : 1 465 kb/s
Width : 640 pixels
Height : 384 pixels
Display aspect ratio : 5:3
Frame rate mode : Constant
Frame rate : 24.000 FPS
Color space : YUV
Chroma subsampling : 4:2:0
Bit depth : 8 bits
Scan type : Progressive
Compression mode : Lossy
Bits/(Pixel*Frame) : 0.248
Stream size : 1.08 GiB (78%)
Writing library : XviD 64
Default : Yes
Forced : No

Audio
ID : 1
Format : AC-3
Format/Info : Audio Coding 3
Commercial name : Dolby Digital
Codec ID : A_AC3
Duration : 1 h 45 min
Bit rate mode : Constant
Bit rate : 384 kb/s
Channel(s) : 6 channels
Channel layout : L R C LFE Ls Rs
Sampling rate : 48.0 kHz
Frame rate : 31.250 FPS (1536 SPF)
Compression mode : Lossy
Stream size : 289 MiB (20%)
Service kind : Complete Main
Default : Yes
Forced : No

 

 

1483472539-U1.png

 

 

g70MPoR.png


RmY8Z.png

This is the hidden content, please

 

mlAW4h6.png

This is the hidden content, please

 

MCFyYyM.png

This is the hidden content, please

  • Like 1
Link to comment
Share on other sites

  • 3 months later...


Create an account or sign in to comment

You need to be a member in order to leave a comment

Create an account

Sign up for a new account in our community. It's easy!

Register a new account

Sign in

Already have an account? Sign in here.

Sign In Now
×
×
  • Create New...