Jump to content


ROGUE AGENT (2022) 720p BluRay x264-WoAT | ΞΕΧΩΡΙΣΤΟΙ ΥΠΟΤΙΤΛΟΙ


marinara

Recommended Posts

 

dKenivc.jpg


Η ταινία εστιάζει στην αληθινή ιστορία με την απάτη του πρώην κατάδικου Ρόμπερτ Φρίγκαρντ, ο οποίος μεταμφιέστηκε σε πράκτορα της MI5 και κορόιδεψε πολλούς ανθρώπους ακόμα και τη γυναίκα που τον ερωτεύτηκε καθώς κατάφερε να κρύψει την πραγματική του ταυτότητα.


usDrZmS.png

https://www.imdb.com/title/tt9731386/


Είδος ταινίας: Drama, Thriller
Σκηνοθεσία: Declan Lawn, Adam Patterson
Σενάριο: Michael Bronner (based on the article "Chasing Agent Freegard" by), Adam Patterson, Declan Lawn
Ηθοποιοί: James Norton, Matthew Douglas, Rob Malone
Μετάφραση: tr55
Διάρκεια: 116'

 

3sZwobQ.png

 

General
Unique ID                      : 41180001699598093133708053551629371733 (0x1EFAFAD6AF18457C02BCD311CFE68955)
Complete name                  : O:\Rogue.Agent.2022.720p.BluRay.x264-WoAT.mkv
Format                         : Matroska
Format version                 : Version 4
File size                      : 5.27 GiB
Duration                       : 1 h 56 min
Overall bit rate               : 6 498 kb/s
Encoded date                   : UTC 2022-11-29 11:19:11
Writing application            : mkvmerge v68.0.0 ('The Curtain') 64-bit
Writing library                : libebml v1.4.2 + libmatroska v1.6.4

Video
ID                             : 1
Format                         : AVC
Format/Info                    : Advanced Video Codec
Format profile                 : High@L4.1
Format settings                : CABAC / 8 Ref Frames
Format settings, CABAC         : Yes
Format settings, Reference fra : 8 frames
Codec ID                       : V_MPEG4/ISO/AVC
Duration                       : 1 h 56 min
Bit rate                       : 5 846 kb/s
Width                          : 1 280 pixels
Height                         : 536 pixels
Display aspect ratio           : 2.40:1
Frame rate mode                : Constant
Frame rate                     : 24.000 FPS
Color space                    : YUV
Chroma subsampling             : 4:2:0
Bit depth                      : 8 bits
Scan type                      : Progressive
Bits/(Pixel*Frame)             : 0.355
Stream size                    : 4.74 GiB (90%)
Writing library                : x264 core 164 r3101 b093bbe
Encoding settings              : cabac=1 / ref=8 / deblock=1:-3:-3 / analyse=0x3:0x133 / me=umh / subme=9 / psy=1 / psy_rd=1.00:0.00 / mixed_ref=1 / me_range=32 / chroma_me=1 / trellis=2 / 8x8dct=1 / cqm=0 / deadzone=21,11 / fast_pskip=0 / chroma_qp_offset=-2 / threads=17 / lookahead_threads=2 / sliced_threads=0 / nr=0 / decimate=0 / interlaced=0 / bluray_compat=0 / constrained_intra=0 / bframes=9 / b_pyramid=2 / b_adapt=2 / b_bias=0 / direct=3 / weightb=1 / open_gop=0 / weightp=2 / keyint=250 / keyint_min=24 / scenecut=40 / intra_refresh=0 / rc=crf / mbtree=0 / crf=15.0 / qcomp=0.60 / qpmin=0 / qpmax=69 / qpstep=4 / ip_ratio=1.40 / pb_ratio=1.30 / aq=3:0.88
Default                        : Yes
Forced                         : No
Color range                    : Limited
Matrix coefficients            : BT.709

Audio
ID                             : 2
Format                         : AC-3
Format/Info                    : Audio Coding 3
Commercial name                : Dolby Digital
Codec ID                       : A_AC3
Duration                       : 1 h 56 min
Bit rate mode                  : Constant
Bit rate                       : 640 kb/s
Channel(s)                     : 6 channels
Channel layout                 : L R C LFE Ls Rs
Sampling rate                  : 48.0 kHz
Frame rate                     : 31.250 FPS (1536 SPF)
Compression mode               : Lossy
Stream size                    : 531 MiB (10%)
Title                          : English
Language                       : English
Service kind                   : Complete Main
Default                        : No
Forced                         : No

 

6DXChrA.jpg

 

EASYBYTEZ|RAPIDGATOR


This is the hidden content, please

Link to comment
Share on other sites



  • Replies 0
  • Created
  • Last Reply

Top Posters In This Topic

  • marinara

    1

Popular Days

Top Posters In This Topic

Popular Days

Create an account or sign in to comment

You need to be a member in order to leave a comment

Create an account

Sign up for a new account in our community. It's easy!

Register a new account

Sign in

Already have an account? Sign in here.

Sign In Now
×
×
  • Create New...