Jump to content


Cisco Pike (1971)


DaVinci

Recommended Posts

  


Cisco Pike (1971)


Cisco-Pike-1971.jpg


info.png

Είδος Ταινίας: Crime, Drama, Thriller
Σκηνοθέτης: Bill Norton
Σεναριογράφος: Bill Norton, Robert Towne
Ηθοποιοί: Kris Kristofferson, Karen Black, Gene Hackman
Πρεμιέρα: 2021
Μετάφραση: subrip


imdb.png


plot.png

Ο Cisco (Kris Kristofferson) είναι ένας έμπορος ναρκωτικών που έχει συλληφθεί αρκετές φορές. Μέτα την αποφυλάκιση του θέλει να αλλάξει τρόπο ζωής και να τα αφήσει όλα πίσω του. Άλλα ένας μπάτσος ο Leo (Gene Hackman) τον εκβιάζει και του ζητάει να διακινήσει μια μεγάλη ποσότητα μαριχουάνας και να αρχίζει να πουλάει. Για συμφέρον του μπάτσου άλλα και του Cisco.

 

 

General
Format                      : Matroska
Format version              : Version 4
File size                   : 1.57 GiB
Duration                    : 1 h 34 min
Overall bit rate            : 2 380 kb/s
Encoded date                : UTC 2022-11-21 07:06:34
Writing application         : mkvmerge v10.0.0 ('To Drown In You') 64bit
Writing library             : libebml v1.3.4 + libmatroska v1.4.5

Video
ID                          : 1
Format                      : AVC
Format/Info                 : Advanced Video Codec
Format profile              : High@L4.1
Format settings             : CABAC / 4 Ref Frames
Format settings, CABAC      : Yes
Format settings, Reference  : 4 frames
Codec ID                    : V_MPEG4/ISO/AVC
Duration                    : 1 h 34 min
Bit rate                    : 2 250 kb/s
Width                       : 1 904 pixels
Height                      : 1 040 pixels
Display aspect ratio        : 1.85:1
Frame rate mode             : Constant
Frame rate                  : 23.976 (24000/1001) FPS
Color space                 : YUV
Chroma subsampling          : 4:2:0
Bit depth                   : 8 bits
Scan type                   : Progressive
Bits/(Pixel*Frame)          : 0.047
Stream size                 : 1.48 GiB (95%)
Writing library             : x264 core 158
Encoding settings           : cabac=1 / ref=4 / deblock=1:-1:-1 / analyse=0x3:0x133 / me=umh / subme=9 / psy=1 / psy_rd=1.00:0.15 / mixed_ref=1 / me_range=24 / chroma_me=1 / trellis=2 / 8x8dct=1 / cqm=0 / deadzone=21,11 / fast_pskip=0 / chroma_qp_offset=-3 / threads=18 / lookahead_threads=1 / sliced_threads=0 / nr=0 / decimate=1 / interlaced=0 / bluray_compat=0 / constrained_intra=0 / bframes=3 / b_pyramid=2 / b_adapt=2 / b_bias=0 / direct=3 / weightb=1 / open_gop=0 / weightp=2 / keyint=250 / keyint_min=23 / scenecut=40 / intra_refresh=0 / rc_lookahead=60 / rc=2pass / mbtree=1 / bitrate=2250 / ratetol=1.0 / qcomp=0.60 / qpmin=0 / qpmax=69 / qpstep=4 / cplxblur=20.0 / qblur=0.5 / vbv_maxrate=31250 / vbv_bufsize=31250 / nal_hrd=none / filler=0 / ip_ratio=1.40 / aq=1:1.00
Default                     : Yes
Forced                      : No

Audio
ID                          : 2
Format                      : AAC LC
Format/Info                 : Advanced Audio Codec Low Complexity
Codec ID                    : A_AAC-2
Duration                    : 1 h 34 min
Bit rate                    : 128 kb/s
Channel(s)                  : 2 channels
Channel layout              : L R
Sampling rate               : 48.0 kHz
Frame rate                  : 46.875 FPS (1024 SPF)
Compression mode            : Lossy
Delay relative to video     : -21 ms
Stream size                 : 86.5 MiB (5%)
Default                     : Yes
Forced                      : No


eazy.png


This is the hidden content, please

Link to comment
Share on other sites



  • Replies 0
  • Created
  • Last Reply

Top Posters In This Topic

  • DaVinci

    1

Popular Days

Top Posters In This Topic

Create an account or sign in to comment

You need to be a member in order to leave a comment

Create an account

Sign up for a new account in our community. It's easy!

Register a new account

Sign in

Already have an account? Sign in here.

Sign In Now
×
×
  • Create New...