Jump to content

A MAN CALLED OTTO (2022) 720p BluRay x264 DTS-MT | ΞΕΧΩΡΙΣΤΟΙ ΥΠΟΤΙΤΛΟΙ


marinara

Recommended Posts

 

6ytJtj9.jpg


Ο Όττο Άντερσον είναι ένας γκρινιάρης μεσήλικας που έχει πρόσφατα χηρεύσει. Ο σχολαστικά οργανωμένος και μοναχικός κόσμος του δέχεται ένα δυνατό ταρακούνημα, όταν μια νέα ζωηρή οικογένεια μετακομίζει στο απέναντι σπίτι. Ο Όττο συναντά το ταίρι του στην πολύ έξυπνη κι ακόμη πιο πολύ έγκυο Μαρισόλ, κι οδηγούνται σε μια απίθανη φιλία που θα ανατρέψει την καθημερινότητά του.


usDrZmS.png

https://www.imdb.com/title/tt7405458/


Είδος ταινίας: Comedy | Drama
Σκηνοθεσία: Marc Forster
Σενάριο: David Magee , Fredrik Backman , Hannes Holm
Ηθοποιοί: Tom Hanks, Mariana Trevino, Rachel Keller, Manuel Garcia-Rulfo, Cameron Britton
Μετάφραση: marios2016
Διάρκεια: 126'

 

3sZwobQ.png

 

General
Unique ID                   : 44927920681291157310435349253227985040 (0x21CCCD82DA7C428D17EE91AC3E1AB890)
Complete name               : O:\A.Man.Called.Otto.2022.720p.BluRay.x264.DTS-MT.mkv
Format                      : Matroska
Format version              : Version 4
File size                   : 9.17 GiB
Duration                    : 2 h 6 min
Overall bit rate            : 10.4 Mb/s
Encoded date                : UTC 2023-03-11 23:17:23
Writing application         : mkvmerge v74.0.0 ('You Oughta Know') 64-bit
Writing library             : libebml v1.4.4 + libmatroska v1.7.1
Cover                       : Yes
Attachments                 : cover.jpg

Video
ID                          : 1
Format                      : AVC
Format/Info                 : Advanced Video Codec
Format profile              : High@L4.1
Format settings             : CABAC / 9 Ref Frames
Format settings, CABAC      : Yes
Format settings, Reference  : 9 frames
Codec ID                    : V_MPEG4/ISO/AVC
Duration                    : 2 h 6 min
Bit rate                    : 8 889 kb/s
Width                       : 1 280 pixels
Height                      : 720 pixels
Display aspect ratio        : 16:9
Frame rate mode             : Constant
Frame rate                  : 23.976 (24000/1001) FPS
Color space                 : YUV
Chroma subsampling          : 4:2:0
Bit depth                   : 8 bits
Scan type                   : Progressive
Bits/(Pixel*Frame)          : 0.402
Stream size                 : 7.83 GiB (85%)
Writing library             : x264 core 157 r2938 2b00a84 TnP@MTeam Mod
Encoding settings           : cabac=1 / ref=9 / deblock=1:-3:-3 / analyse=0x3:0x133 / me=umh / subme=10 / psy=1 / psy_rd=1.05:0.00 / mixed_ref=1 / me_range=32 / chroma_me=1 / trellis=2 / 8x8dct=1 / cqm=0 / deadzone=21,11 / fast_pskip=0 / chroma_qp_offset=-2 / threads=12 / lookahead_threads=2 / sliced_threads=0 / nr=0 / decimate=0 / interlaced=0 / bluray_compat=0 / constrained_intra=0 / bframes=8 / b_pyramid=2 / b_adapt=2 / b_bias=0 / direct=3 / weightb=1 / open_gop=0 / weightp=2 / keyint=250 / keyint_min=24 / scenecut=40 / intra_refresh=0 / rc_lookahead=250 / rc=crf / mbtree=0 / crf=16.8 / qcomp=0.60 / qpmin=0 / qpmax=69 / qpstep=4 / vbv_maxrate=62500 / vbv_bufsize=78125 / crf_max=0.0 / nal_hrd=none / filler=0 / ip_ratio=1.30 / pb_ratio=1.20 / aq=3:0.80
Language                    : English
Default                     : Yes
Forced                      : No
Color range                 : Limited
Color primaries             : BT.709
Matrix coefficients         : BT.709

Audio
ID                          : 2
Format                      : DTS
Format/Info                 : Digital Theater Systems
Codec ID                    : A_DTS
Duration                    : 2 h 6 min
Bit rate mode               : Constant
Bit rate                    : 1 509 kb/s
Channel(s)                  : 6 channels
Channel layout              : C L R Ls Rs LFE
Sampling rate               : 48.0 kHz
Frame rate                  : 93.750 FPS (512 SPF)
Bit depth                   : 16 bits
Compression mode            : Lossy
Stream size                 : 1.33 GiB (15%)
Language                    : English
Default                     : Yes
Forced                      : No

 

3X4TJuZ.jpg

 

EASYBYTEZ|RAPIDGATOR


This is the hidden content, please

Link to comment
Share on other sites

  • Replies 0
  • Created
  • Last Reply

Top Posters In This Topic

  • marinara

    1

Popular Days

Top Posters In This Topic

Guest
Unfortunately, your content contains terms that we do not allow. Please edit your content to remove the highlighted words below.
Reply to this topic...

×   Pasted as rich text.   Paste as plain text instead

  Only 75 emoji are allowed.

×   Your link has been automatically embedded.   Display as a link instead

×   Your previous content has been restored.   Clear editor

×   You cannot paste images directly. Upload or insert images from URL.

×
×
  • Create New...