Jump to content

KOLYA (1996) DC 1080p BluRay DD5.1 x264-GrHD | ΞΕΧΩΡΙΣΤΟΙ ΥΠΟΤΙΤΛΟΙ


Dalton

Recommended Posts

  


Y0ixnwV.jpg


gGH2Dbn.png?3

Ελληνικός Τίτλος: Ο μικρός Κόλια
Είδος Ταινίας: Comedy, Drama, Mucic
Σκηνοθέτης: Jan Sverak
Σεναριογράφος: Pavel Taussig, Zdenek Sverak
Ηθοποιοί: Zdenek Sverak, Andrey Khalimon, Libuse Safrankova
Πρεμιέρα: November 1996 (Greece)
Υπότιτλοι: Ελληνικοί Ενσωματωμένοι & Σε Ξεχωριστό Αρχείο
Μετάφραση: dvd


dbzzNXu.png?2

Στην Πράγα του 1988, ένας πενηντάρης μουσικός, θύμα του καθεστώτος, που έχει ωστόσο έντονη ερωτική ζωή, αναγκάζεται να πάρει υπό την προστασία του έναν πεντάχρονο Ρώσο, που δεν μιλά λέξη τσεχικά.


IMDB.png

 


Fl6axkc.jpg


uoJL54u.png?2

General
Format                      : Matroska
Format version              : Version 4
File size                   : 8.68 GiB
Duration                    : 1 h 51 min
Overall bit rate            : 11.1 Mb/s
Movie name                  : Kolja.1996
Encoded date                : UTC 2023-02-19 12:56:28
Writing application         : mkvmerge v10.0.0 ('To Drown In You') 64bit
Writing library             : libebml v1.3.4 + libmatroska v1.4.5
Cover                       : Yes
Attachments                 : cover.jpg / cover_land.jpg

Video
ID                          : 1
Format                      : AVC
Format/Info                 : Advanced Video Codec
Format profile              : High@L4.1
Format settings             : CABAC / 4 Ref Frames
Format settings, CABAC      : Yes
Format settings, Reference  : 4 frames
Codec ID                    : V_MPEG4/ISO/AVC
Duration                    : 1 h 51 min
Bit rate                    : 9 000 kb/s
Width                       : 1 920 pixels
Height                      : 1 080 pixels
Display aspect ratio        : 16:9
Frame rate mode             : Constant
Frame rate                  : 23.976 FPS
Color space                 : YUV
Chroma subsampling          : 4:2:0
Bit depth                   : 8 bits
Scan type                   : Progressive
Bits/(Pixel*Frame)          : 0.181
Stream size                 : 7.00 GiB (81%)
Writing library             : x264 core 114 r1913 5fd3dce
Encoding settings           : cabac=1 / ref=4 / deblock=1:-3:-3 / analyse=0x3:0x113 / me=tesa / subme=10 / psy=1 / psy_rd=1.10:0.00 / mixed_ref=1 / me_range=32 / chroma_me=1 / trellis=2 / 8x8dct=1 / cqm=0 / deadzone=21,11 / fast_pskip=0 / chroma_qp_offset=-2 / threads=18 / sliced_threads=0 / nr=0 / decimate=0 / interlaced=0 / constrained_intra=0 / bframes=10 / b_pyramid=2 / b_adapt=2 / b_bias=0 / direct=3 / weightb=1 / open_gop=0 / weightp=2 / keyint=250 / keyint_min=23 / scenecut=40 / intra_refresh=0 / rc_lookahead=60 / rc=2pass / mbtree=1 / bitrate=9000 / ratetol=1.0 / qcomp=0.60 / qpmin=0 / qpmax=69 / qpstep=4 / cplxblur=20.0 / qblur=0.5 / vbv_maxrate=38000 / vbv_bufsize=30000 / nal_hrd=none / ip_ratio=1.40 / aq=1:0.90
Language                    : Czech
Default                     : Yes
Forced                      : No

Audio #1
ID                          : 2
Format                      : DTS
Format/Info                 : Digital Theater Systems
Codec ID                    : A_DTS
Duration                    : 1 h 51 min
Bit rate mode               : Constant
Bit rate                    : 1 509 kb/s
Channel(s)                  : 2 channels
Channel layout              : L R
Sampling rate               : 48.0 kHz
Frame rate                  : 93.750 FPS (512 SPF)
Bit depth                   : 16 bits
Compression mode            : Lossy
Stream size                 : 1.18 GiB (14%)
Title                       : Czech ~ dts
Language                    : Czech
Default                     : Yes
Forced                      : No

Audio #2
ID                          : 3
Format                      : AC-3
Format/Info                 : Audio Coding 3
Commercial name             : Dolby Digital
Codec ID                    : A_AC3
Duration                    : 1 h 51 min
Bit rate mode               : Constant
Bit rate                    : 640 kb/s
Channel(s)                  : 6 channels
Channel layout              : L R C LFE Ls Rs
Sampling rate               : 48.0 kHz
Frame rate                  : 31.250 FPS (1536 SPF)
Compression mode            : Lossy
Stream size                 : 510 MiB (6%)
Title                       : Czech ~ dd
Language                    : Czech
Service kind                : Complete Main
Default                     : No
Forced                      : No

Text #1
ID                          : 4
Format                      : UTF-8
Codec ID                    : S_TEXT/UTF8
Codec ID/Info               : UTF-8 Plain Text
Duration                    : 1 h 46 min
Bit rate                    : 40 b/s
Frame rate                  : 0.152 FPS
Count of elements           : 973
Stream size                 : 31.6 KiB (0%)
Language                    : English
Default                     : No
Forced                      : No

Text #2
ID                          : 5
Format                      : UTF-8
Codec ID                    : S_TEXT/UTF8
Codec ID/Info               : UTF-8 Plain Text
Duration                    : 1 h 48 min
Bit rate                    : 67 b/s
Frame rate                  : 0.148 FPS
Count of elements           : 967
Stream size                 : 53.4 KiB (0%)
Language                    : Greek
Default                     : Yes
Forced                      : No

Text #3
ID                          : 6
Format                      : UTF-8
Codec ID                    : S_TEXT/UTF8
Codec ID/Info               : UTF-8 Plain Text
Duration                    : 1 h 47 min
Bit rate                    : 38 b/s
Frame rate                  : 0.111 FPS
Count of elements           : 718
Stream size                 : 30.1 KiB (0%)
Language                    : Czech
Default                     : No
Forced                      : No


logo.gif / fwvE84D.png


This is the hidden content, please


  • Like 1
Link to comment
Share on other sites

Guest
Unfortunately, your content contains terms that we do not allow. Please edit your content to remove the highlighted words below.
Reply to this topic...

×   Pasted as rich text.   Paste as plain text instead

  Only 75 emoji are allowed.

×   Your link has been automatically embedded.   Display as a link instead

×   Your previous content has been restored.   Clear editor

×   You cannot paste images directly. Upload or insert images from URL.

×
×
  • Create New...