Jump to content

MAN OF GOD (2021) 1080p BluRay REMUX AVC DTS-HD.MA 5.1-HDT | ΞΕΧΩΡΙΣΤΟΙ ΥΠΟΤΙΤΛΟΙ


Dalton

Recommended Posts

  


VKdW2Hy.jpg

 

gGH2Dbn.png?3

Ελληνικός Τίτλος: Ο άνθρωπος του Θεού
Είδος Ταινίας: Biography, Drama
Σκηνοθέτης: Yelena Popovic
Σεναριογράφος: Yelena Popovic
Ηθοποιοί: Aris Servetalis, Mickey Rourke, Alexander Petrov, Tonia Sotiropoulou
Πρεμιέρα: 26 August 2021 (Greece)
Υπότιτλοι: Ελληνικοί Ενσωματωμένοι & Σε Ξεχωριστό Αρχείο
Μετάφραση: dvd

dbzzNXu.png?2

Η δημοτικότητα του Αγίου Νεκτάριου Μητροπολίτη Πενταπόλεως προκαλεί τη ζήλια των κληρικών στην Αλεξάνδρεια. Από φόβο ότι θα γίνει ο επόμενος Πατριάρχης Αιγύπτου, μέρος του κλήρου τον δυσφημίζει με αποτέλεσμα να εκδιωχθεί από την Αίγυπτο. Στην Αθήνα πια, χάρη στην εξελιγμένη παιδαγωγική του τακτική, γίνεται ξακουστός και κοσμαγάπητος, και την ίδια εποχή επιδίδεται σε σπουδαίο συγγραφικό έργο. Ο φόρτος εργασίας όμως τον καταπονεί, και αποφασίζει να αποσυρθεί στην Αίγινα, όπου ξαναχτίζει ένα ερειπωμένο μοναστήρι με τα ίδια του τα χέρια, το οποίο χάρη στη φήμη του μεγαλώνει. Η μονή όμως δεν αναγνωρίζεται ποτέ, ενώ ο Άγιος Νεκτάριος κατηγορείται άδικα για ανηθικότητα. Στο Αρεταίειο νοσοκομείο, λίγο πριν το τέλος του, θα κάνει το τελευταίο του θαύμα.


IMDB.png

 


M775nMv.jpg


uoJL54u.png?2

 

General
Format                      : Matroska
Format version              : Version 4
File size                   : 21.2 GiB
Duration                    : 1 h 48 min
Overall bit rate mode       : Variable
Overall bit rate            : 27.9 Mb/s
Movie name                  : Man.of.God.2021
Encoded date                : UTC 2023-03-27 20:32:21
Writing application         : mkvmerge v46.0.0 ('No Deeper Escape') 64-bit
Writing library             : libebml v1.3.10 + libmatroska v1.5.2
Cover                       : Yes
Attachments                 : cover_land.jpg

Video
ID                          : 1
ID in the original source m : 4113 (0x1011)
Format                      : AVC
Format/Info                 : Advanced Video Codec
Format profile              : High@L4.1
Format settings             : CABAC / 4 Ref Frames
Format settings, CABAC      : Yes
Format settings, Reference  : 4 frames
Codec ID                    : V_MPEG4/ISO/AVC
Duration                    : 1 h 48 min
Bit rate mode               : Variable
Bit rate                    : 24.0 Mb/s
Maximum bit rate            : 35.0 Mb/s
Width                       : 1 920 pixels
Height                      : 1 080 pixels
Display aspect ratio        : 16:9
Frame rate mode             : Constant
Frame rate                  : 23.976 (24000/1001) FPS
Standard                    : NTSC
Color space                 : YUV
Chroma subsampling          : 4:2:0
Bit depth                   : 8 bits
Scan type                   : Progressive
Bits/(Pixel*Frame)          : 0.483
Stream size                 : 18.3 GiB (86%)
Default                     : Yes
Forced                      : No
Color range                 : Limited
Color primaries             : BT.709
Transfer characteristics    : BT.709
Matrix coefficients         : BT.709
Original source medium      : Blu-ray

Audio #1
ID                          : 2
ID in the original source m : 4352 (0x1100)
Format                      : DTS XLL
Format/Info                 : Digital Theater Systems
Commercial name             : DTS-HD Master Audio
Codec ID                    : A_DTS
Duration                    : 1 h 48 min
Bit rate mode               : Variable
Bit rate                    : 3 223 kb/s
Channel(s)                  : 6 channels
Channel layout              : C L R Ls Rs LFE
Sampling rate               : 48.0 kHz
Frame rate                  : 93.750 FPS (512 SPF)
Bit depth                   : 24 bits
Compression mode            : Lossless
Stream size                 : 2.45 GiB (12%)
Language                    : English
Default                     : Yes
Forced                      : No
Original source medium      : Blu-ray

Audio #2
ID                          : 3
Format                      : AC-3
Format/Info                 : Audio Coding 3
Commercial name             : Dolby Digital
Codec ID                    : A_AC3
Duration                    : 1 h 48 min
Bit rate mode               : Constant
Bit rate                    : 640 kb/s
Channel(s)                  : 6 channels
Channel layout              : L R C LFE Ls Rs
Sampling rate               : 48.0 kHz
Frame rate                  : 31.250 FPS (1536 SPF)
Compression mode            : Lossy
Stream size                 : 499 MiB (2%)
Language                    : English
Service kind                : Complete Main
Default                     : No
Forced                      : No

Text #1
ID                          : 4
Format                      : UTF-8
Codec ID                    : S_TEXT/UTF8
Codec ID/Info               : UTF-8 Plain Text
Duration                    : 1 h 42 min
Bit rate                    : 97 b/s
Frame rate                  : 0.200 FPS
Count of elements           : 1229
Stream size                 : 72.8 KiB (0%)
Language                    : Greek
Default                     : Yes
Forced                      : No

Text #2
ID                          : 5
ID in the original source m : 4609 (0x1201)
Format                      : PGS
Muxing mode                 : zlib
Codec ID                    : S_HDMV/PGS
Codec ID/Info               : Picture based subtitle format used on BDs/HD-DVDs
Duration                    : 27 min 16 s
Bit rate                    : 995 b/s
Frame rate                  : 0.015 FPS
Count of elements           : 24
Stream size                 : 199 KiB (0%)
Title                       : Forced
Language                    : English
Default                     : No
Forced                      : No
Original source medium      : Blu-ray

Text #3
ID                          : 6
ID in the original source m : 4608 (0x1200)
Format                      : PGS
Muxing mode                 : zlib
Codec ID                    : S_HDMV/PGS
Codec ID/Info               : Picture based subtitle format used on BDs/HD-DVDs
Duration                    : 1 h 48 min
Bit rate                    : 29.5 kb/s
Frame rate                  : 0.473 FPS
Count of elements           : 3088
Stream size                 : 22.9 MiB (0%)
Title                       : SDH
Language                    : English
Default                     : No
Forced                      : No
Original source medium      : Blu-ray

 

logo.gif

 Πατήστε έπανω στο Banner για Εγγραφή ή για Αγορά Premium !!!

lEtufzy.png  yfmMVVr.png 


This is the hidden content, please

 

 

 

Edited by Dalton
New Link
Link to comment
Share on other sites

  • Replies 0
  • Created
  • Last Reply

Top Posters In This Topic

  • Dalton

    1

Popular Days

Top Posters In This Topic

Guest
Unfortunately, your content contains terms that we do not allow. Please edit your content to remove the highlighted words below.
Reply to this topic...

×   Pasted as rich text.   Paste as plain text instead

  Only 75 emoji are allowed.

×   Your link has been automatically embedded.   Display as a link instead

×   Your previous content has been restored.   Clear editor

×   You cannot paste images directly. Upload or insert images from URL.

×
×
  • Create New...