Jump to content


PROJECT WOLF HUNTING (2022) 1080p BluRay DTS x264-WiKi | ΞΕΧΩΡΙΣΤΟΙ ΥΠΟΤΙΤΛΟΙ


Dalton

Recommended Posts

  


0fIXb1O.jpg


gGH2Dbn.png?3

Ελληνικός Τίτλος: -
Είδος Ταινίας: Action, Crime, Horror
Σκηνοθέτης: Hongsun Kim
Σεναριογράφος: Hongsun Kim
Ηθοποιοί: Seo In-Guk, Dong-Yoon Jang, Jung So-Min
Πρεμιέρα: 21 September 2022 (South Korea)
Υπότιτλοι: Ελληνικοί Ενσωματωμένοι & Σε Ξεχωριστό Αρχείο
Μετάφραση: TheWhateverTeam


dbzzNXu.png?2

Ακολουθεί επικίνδυνους εγκληματίες σε ένα φορτηγό πλοίο που μεταφέρονται από τις Φιλιππίνες στη Νότια Κορέα, καθώς εξαπολύουν μια απαίσια δύναμη μετά από μια προσπάθεια απόδρασης που οδηγεί σε ταραχή.


IMDB.png

 


ebtStsc.jpg


uoJL54u.png?2

General
Format                      : Matroska
Format version              : Version 4
File size                   : 12.1 GiB
Duration                    : 2 h 2 min
Overall bit rate            : 14.2 Mb/s
Movie name                  : Project.Wolf.Hunting.2022
Encoded date                : UTC 2023-04-16 08:17:40
Writing application         : mkvmerge v46.0.0 ('No Deeper Escape') 64-bit
Writing library             : libebml v1.3.10 + libmatroska v1.5.2
Cover                       : Yes
Attachments                 : cover_land.jpg

Video
ID                          : 1
Format                      : AVC
Format/Info                 : Advanced Video Codec
Format profile              : High@L4.1
Format settings             : CABAC / 5 Ref Frames
Format settings, CABAC      : Yes
Format settings, Reference  : 5 frames
Codec ID                    : V_MPEG4/ISO/AVC
Duration                    : 2 h 2 min
Bit rate                    : 12.0 Mb/s
Width                       : 1 920 pixels
Height                      : 800 pixels
Display aspect ratio        : 2.40:1
Frame rate mode             : Constant
Frame rate                  : 23.976 (24000/1001) FPS
Color space                 : YUV
Chroma subsampling          : 4:2:0
Bit depth                   : 8 bits
Scan type                   : Progressive
Bits/(Pixel*Frame)          : 0.326
Stream size                 : 10.3 GiB (85%)
Writing library             : x264 core 157 r2969 d4099dd
Encoding settings           : cabac=1 / ref=5 / deblock=1:-3:-3 / analyse=0x3:0x113 / me=umh / subme=11 / psy=1 / psy_rd=1.00:0.05 / mixed_ref=1 / me_range=64 / chroma_me=1 / trellis=2 / 8x8dct=1 / cqm=0 / deadzone=21,11 / fast_pskip=1 / chroma_qp_offset=-5 / threads=25 / lookahead_threads=4 / sliced_threads=0 / nr=0 / decimate=0 / interlaced=0 / bluray_compat=0 / constrained_intra=0 / bframes=8 / b_pyramid=2 / b_adapt=2 / b_bias=0 / direct=3 / weightb=1 / open_gop=0 / weightp=2 / keyint=250 / keyint_min=23 / scenecut=40 / intra_refresh=0 / rc=2pass / mbtree=0 / bitrate=12000 / ratetol=1.0 / qcomp=0.60 / qpmin=0 / qpmax=69 / qpstep=4 / cplxblur=20.0 / qblur=0.5 / ip_ratio=1.40 / pb_ratio=1.30 / aq=1:0.80
Language                    : English
Default                     : Yes
Forced                      : No

Audio #1
ID                          : 2
Format                      : DTS
Format/Info                 : Digital Theater Systems
Codec ID                    : A_DTS
Duration                    : 2 h 2 min
Bit rate mode               : Constant
Bit rate                    : 1 509 kb/s
Channel(s)                  : 6 channels
Channel layout              : C L R Ls Rs LFE
Sampling rate               : 48.0 kHz
Frame rate                  : 93.750 FPS (512 SPF)
Bit depth                   : 16 bits
Compression mode            : Lossy
Stream size                 : 1.29 GiB (11%)
Language                    : Korean
Default                     : Yes
Forced                      : No

Audio #2
ID                          : 3
Format                      : AC-3
Format/Info                 : Audio Coding 3
Commercial name             : Dolby Digital
Codec ID                    : A_AC3
Duration                    : 2 h 2 min
Bit rate mode               : Constant
Bit rate                    : 640 kb/s
Channel(s)                  : 6 channels
Channel layout              : L R C LFE Ls Rs
Sampling rate               : 48.0 kHz
Frame rate                  : 31.250 FPS (1536 SPF)
Compression mode            : Lossy
Stream size                 : 560 MiB (5%)
Language                    : Korean
Service kind                : Complete Main
Default                     : No
Forced                      : No

Text #1
ID                          : 4
Format                      : UTF-8
Codec ID                    : S_TEXT/UTF8
Codec ID/Info               : UTF-8 Plain Text
Duration                    : 1 h 55 min
Bit rate                    : 51 b/s
Frame rate                  : 0.123 FPS
Count of elements           : 852
Stream size                 : 43.3 KiB (0%)
Language                    : Greek
Default                     : No
Forced                      : No

Text #2
ID                          : 5
Format                      : PGS
Muxing mode                 : zlib
Codec ID                    : S_HDMV/PGS
Codec ID/Info               : Picture based subtitle format used on BDs/HD-DVDs
Duration                    : 1 h 52 min
Bit rate                    : 17.0 kb/s
Frame rate                  : 0.349 FPS
Count of elements           : 2358
Stream size                 : 13.7 MiB (0%)
Title                       : chs
Language                    : Chinese
Default                     : Yes
Forced                      : No

Text #3
ID                          : 6
Format                      : PGS
Muxing mode                 : zlib
Codec ID                    : S_HDMV/PGS
Codec ID/Info               : Picture based subtitle format used on BDs/HD-DVDs
Duration                    : 1 h 52 min
Bit rate                    : 17.9 kb/s
Frame rate                  : 0.349 FPS
Count of elements           : 2358
Stream size                 : 14.4 MiB (0%)
Title                       : cht
Language                    : Chinese
Default                     : No
Forced                      : No

Text #4
ID                          : 7
Format                      : PGS
Muxing mode                 : zlib
Codec ID                    : S_HDMV/PGS
Codec ID/Info               : Picture based subtitle format used on BDs/HD-DVDs
Duration                    : 1 h 52 min
Bit rate                    : 22.5 kb/s
Frame rate                  : 0.298 FPS
Count of elements           : 2009
Stream size                 : 18.1 MiB (0%)
Title                       : eng
Language                    : English
Default                     : No
Forced                      : No


logo.gif / fwvE84D.png


This is the hidden content, please


Link to comment
Share on other sites



  • Replies 0
  • Created
  • Last Reply

Top Posters In This Topic

  • Dalton

    1

Popular Days

Top Posters In This Topic

Create an account or sign in to comment

You need to be a member in order to leave a comment

Create an account

Sign up for a new account in our community. It's easy!

Register a new account

Sign in

Already have an account? Sign in here.

Sign In Now
×
×
  • Create New...