Jump to content


MARLOWE (2022) 1080p BluRay REMUX AVC DTS-HD.MA 5.1-FGT | ΞΕΧΩΡΙΣΤΟΙ ΥΠΟΤΙΤΛΟΙ


Dalton

Recommended Posts

  


tpwPlKr.jpg


gGH2Dbn.png?3

Ελληνικός Τίτλος: Ντετέκτιβ Μάρλοου
Είδος Ταινίας: Crime, Mystery, Thriller
Σκηνοθέτης: Neil Jordan
Σεναριογράφος: Francine Rivers, D.J. Caruso
Ηθοποιοί: Liam Neeson, Diane Kruger, Jessica Lange
Πρεμιέρα: 15 January 2022 (USA)
Υπότιτλοι: Ελληνικοί Ενσωματωμένοι & Σε Ξεχωριστό Αρχείο
Μετάφραση: marios2016


dbzzNXu.png?2

Ο ιδιωτικός ντετέκτιβ Φίλιπ Μάρλοου εμπλέκεται σε μια έρευνα που αφορά μια πλούσια οικογένεια της Καλιφόρνιας, όταν μια όμορφη ξανθιά τον προσλαμβάνει για να εντοπίσει τον πρώην εραστή της.


IMDB.png

 


olHnLzF.jpg


uoJL54u.png?2

General
Format                      : Matroska
Format version              : Version 4
File size                   : 29.3 GiB
Duration                    : 1 h 49 min
Overall bit rate mode       : Variable
Overall bit rate            : 38.2 Mb/s
Movie name                  : Marlowe.2022
Encoded date                : UTC 2023-04-22 12:28:56
Writing application         : mkvmerge v46.0.0 ('No Deeper Escape') 64-bit
Writing library             : libebml v1.3.10 + libmatroska v1.5.2
Cover                       : Yes
Attachments                 : cover_land.jpg

Video
ID                          : 1
ID in the original source m : 4113 (0x1011)
Format                      : AVC
Format/Info                 : Advanced Video Codec
Format profile              : High@L4.1
Format settings             : CABAC / 4 Ref Frames
Format settings, CABAC      : Yes
Format settings, Reference  : 4 frames
Codec ID                    : V_MPEG4/ISO/AVC
Duration                    : 1 h 49 min
Bit rate mode               : Variable
Bit rate                    : 34.0 Mb/s
Maximum bit rate            : 38.0 Mb/s
Width                       : 1 920 pixels
Height                      : 1 080 pixels
Display aspect ratio        : 16:9
Frame rate mode             : Constant
Frame rate                  : 23.976 (24000/1001) FPS
Color space                 : YUV
Chroma subsampling          : 4:2:0
Bit depth                   : 8 bits
Scan type                   : Progressive
Bits/(Pixel*Frame)          : 0.684
Stream size                 : 26.1 GiB (89%)
Language                    : English
Default                     : No
Forced                      : No
Original source medium      : Blu-ray

Audio #1
ID                          : 2
ID in the original source m : 4352 (0x1100)
Format                      : DTS XLL
Format/Info                 : Digital Theater Systems
Commercial name             : DTS-HD Master Audio
Codec ID                    : A_DTS
Duration                    : 1 h 49 min
Bit rate mode               : Variable
Bit rate                    : 3 502 kb/s
Channel(s)                  : 6 channels
Channel layout              : C L R Ls Rs LFE
Sampling rate               : 48.0 kHz
Frame rate                  : 93.750 FPS (512 SPF)
Bit depth                   : 24 bits
Compression mode            : Lossless
Stream size                 : 2.68 GiB (9%)
Title                       : DTS-HD MA 5.1
Language                    : English
Default                     : Yes
Forced                      : No
Original source medium      : Blu-ray

Audio #2
ID                          : 3
Format                      : AC-3
Format/Info                 : Audio Coding 3
Commercial name             : Dolby Digital
Codec ID                    : A_AC3
Duration                    : 1 h 49 min
Bit rate mode               : Constant
Bit rate                    : 640 kb/s
Channel(s)                  : 6 channels
Channel layout              : L R C LFE Ls Rs
Sampling rate               : 48.0 kHz
Frame rate                  : 31.250 FPS (1536 SPF)
Compression mode            : Lossy
Stream size                 : 502 MiB (2%)
Title                       : DD 5.1
Language                    : English
Service kind                : Complete Main
Default                     : No
Forced                      : No

Text #1
ID                          : 4
Format                      : UTF-8
Codec ID                    : S_TEXT/UTF8
Codec ID/Info               : UTF-8 Plain Text
Duration                    : 1 h 41 min
Bit rate                    : 68 b/s
Frame rate                  : 0.267 FPS
Count of elements           : 1621
Stream size                 : 50.5 KiB (0%)
Language                    : English
Default                     : Yes
Forced                      : No

Text #2
ID                          : 5
Format                      : UTF-8
Codec ID                    : S_TEXT/UTF8
Codec ID/Info               : UTF-8 Plain Text
Duration                    : 1 h 45 min
Bit rate                    : 69 b/s
Frame rate                  : 0.277 FPS
Count of elements           : 1761
Stream size                 : 53.7 KiB (0%)
Title                       : SDH
Language                    : English
Default                     : No
Forced                      : No

Text #3
ID                          : 6
Format                      : UTF-8
Codec ID                    : S_TEXT/UTF8
Codec ID/Info               : UTF-8 Plain Text
Duration                    : 1 h 41 min
Bit rate                    : 129 b/s
Frame rate                  : 0.268 FPS
Count of elements           : 1622
Stream size                 : 95.5 KiB (0%)
Language                    : Greek
Default                     : No
Forced                      : No

Text #4
ID                          : 7
ID in the original source m : 4608 (0x1200)
Format                      : PGS
Muxing mode                 : zlib
Codec ID                    : S_HDMV/PGS
Codec ID/Info               : Picture based subtitle format used on BDs/HD-DVDs
Duration                    : 1 h 45 min
Bit rate                    : 48.2 kb/s
Frame rate                  : 0.558 FPS
Count of elements           : 3546
Stream size                 : 36.5 MiB (0%)
Language                    : English
Default                     : No
Forced                      : No
Original source medium      : Blu-ray

Text #5
ID                          : 8
ID in the original source m : 4609 (0x1201)
Format                      : PGS
Muxing mode                 : zlib
Codec ID                    : S_HDMV/PGS
Codec ID/Info               : Picture based subtitle format used on BDs/HD-DVDs
Duration                    : 1 h 48 min
Bit rate                    : 38.5 kb/s
Frame rate                  : 0.409 FPS
Count of elements           : 2662
Stream size                 : 29.9 MiB (0%)
Language                    : Spanish
Default                     : No
Forced                      : No
Original source medium      : Blu-ray


logo.gif / fwvE84D.png


This is the hidden content, please


Link to comment
Share on other sites



  • Replies 0
  • Created
  • Last Reply

Top Posters In This Topic

  • Dalton

    1

Popular Days

Top Posters In This Topic

Create an account or sign in to comment

You need to be a member in order to leave a comment

Create an account

Sign up for a new account in our community. It's easy!

Register a new account

Sign in

Already have an account? Sign in here.

Sign In Now
×
×
  • Create New...