Jump to content

Barbie (2023) English 1080p WEB-DL DD5.1 H.264-TheBiscuitMan


DaVinci

Recommended Posts

  


Barbie (2023)


Barbie-2023.jpg


info.png

ΣΚΗΝΟΘΕΣΙΑ : ΣΚΗΝΟΘΕΣΙΑ : Greta Gerwig
ΣΕΝΑΡΙΟ : Greta Gerwig, Noah Baumbach
ΗΘΟΠΟΙΟΙ : Margot Robbie, Ryan Gosling, Issa Rae
ΕΙΔΟΣ : Adventure, Comedy, Fantasy
ΠΡΕΜΙΕΡΑ : 2023

ΜΕΤΑΦΡΑΣΗ : nFin1ty


imdb.png


plot.png

Η ζωή στον κόσμο της Barbie, απαιτεί να είστε το απόλυτα τέλειο πλάσμα, περιτριγυρισμένο από ένα απόλυτα τέλειο περιβάλλον. Εκτός βέβαια, αν βιώνετε μια βαθιά, υπαρξιακή κρίση. Ή είστε ένας Κεν.

 

 

General
Format                      : Matroska
Format version              : Version 4
File size                   : 8.06 GiB
Duration                    : 1 h 54 min
Overall bit rate mode       : Variable
Overall bit rate            : 10.1 Mb/s
Frame rate                  : 23.976 FPS
Writing application         : mkvmerge v79.0 ('Funeral Pyres') 64-bit
Writing library             : libebml v1.4.4 + libmatroska v1.7.1

Video
ID                          : 1
Format                      : AVC
Format/Info                 : Advanced Video Codec
Format profile              : Main@L4
Format settings             : CABAC / 2 Ref Frames
Format settings, CABAC      : Yes
Format settings, Reference  : 2 frames
Codec ID                    : V_MPEG4/ISO/AVC
Duration                    : 1 h 54 min
Bit rate mode               : Variable
Bit rate                    : 9 727 kb/s
Maximum bit rate            : 16.0 Mb/s
Width                       : 1 920 pixels
Height                      : 960 pixels
Display aspect ratio        : 2.000
Frame rate mode             : Constant
Frame rate                  : 23.976 (24000/1001) FPS
Color space                 : YUV
Chroma subsampling          : 4:2:0
Bit depth                   : 8 bits
Scan type                   : Progressive
Bits/(Pixel*Frame)          : 0.220
Stream size                 : 7.75 GiB (96%)
Default                     : Yes
Forced                      : No
Color range                 : Limited
Color primaries             : BT.709
Transfer characteristics    : BT.709
Matrix coefficients         : BT.709

Audio
ID                          : 2
Format                      : AC-3
Format/Info                 : Audio Coding 3
Commercial name             : Dolby Digital
Codec ID                    : A_AC3
Duration                    : 1 h 54 min
Bit rate mode               : Constant
Bit rate                    : 384 kb/s
Channel(s)                  : 6 channels
Channel layout              : L R C LFE Ls Rs
Sampling rate               : 48.0 kHz
Frame rate                  : 31.250 FPS (1536 SPF)
Compression mode            : Lossy
Stream size                 : 313 MiB (4%)
Language                    : English
Service kind                : Complete Main
Default                     : Yes
Forced                      : No

Text
ID                          : 3
Format                      : UTF-8
Codec ID                    : S_TEXT/UTF8
Codec ID/Info               : UTF-8 Plain Text
Duration                    : 1 h 48 min
Bit rate                    : 82 b/s
Frame rate                  : 0.347 FPS
Count of elements           : 2257
Stream size                 : 65.6 KiB (0%)
Title                       : SDH
Language                    : English
Default                     : Yes
Forced                      : No


eazy.png


This is the hidden content, please

  • Like 2
  • Thanks 1
Link to comment
Share on other sites

Guest
Unfortunately, your content contains terms that we do not allow. Please edit your content to remove the highlighted words below.
Reply to this topic...

×   Pasted as rich text.   Paste as plain text instead

  Only 75 emoji are allowed.

×   Your link has been automatically embedded.   Display as a link instead

×   Your previous content has been restored.   Clear editor

×   You cannot paste images directly. Upload or insert images from URL.

×
×
  • Create New...