Jump to content

Godland (2022)


DaVinci

Recommended Posts

  


Godland (2022)


Godland-2022.jpg


info.png

Είδος Ταινίας: Drama
Σκηνοθέτης: Hlynur Pálmason
Σεναριογράφος: Hlynur Pálmason
Ηθοποιοί: Elliott Crosset Hove, Ingvar Sigurdsson, Vic Carmen Sonne
Πρεμιέρα: 2022
Μετάφραση: sougadim

 

imdb.png

 


plot.png

Στα τέλη του 19ου αιώνα, ένας νεαρός Δανός ιερέας ταξιδεύει σε μια απομακρυσμένη περιοχή της Ισλανδίας με στόχο να χτίσει μια εκκλησία, αλλά και να φωτογραφίσει τους κατοίκους της.‎

 

 

 

General
Format                      : Matroska
Format version              : Version 4
File size                   : 2.38 GiB
Duration                    : 2 h 22 min
Overall bit rate            : 2 381 kb/s
Frame rate                  : 24.000 FPS
Encoded date                : 2023-09-06 08:41:55 UTC
Writing application         : mkvmerge v10.0.0 ('To Drown In You') 64bit
Writing library             : libebml v1.3.4 + libmatroska v1.4.5

Video
ID                          : 1
Format                      : AVC
Format/Info                 : Advanced Video Codec
Format profile              : High@L4.1
Format settings             : CABAC / 4 Ref Frames
Format settings, CABAC      : Yes
Format settings, Reference  : 4 frames
Codec ID                    : V_MPEG4/ISO/AVC
Duration                    : 2 h 22 min
Bit rate                    : 2 250 kb/s
Width                       : 1 338 pixels
Height                      : 1 028 pixels
Display aspect ratio        : 4:3
Frame rate mode             : Constant
Frame rate                  : 24.000 FPS
Color space                 : YUV
Chroma subsampling          : 4:2:0
Bit depth                   : 8 bits
Scan type                   : Progressive
Bits/(Pixel*Frame)          : 0.068
Stream size                 : 2.25 GiB (94%)
Writing library             : x264 core 164 r56 e067ab0
Encoding settings           : cabac=1 / ref=4 / deblock=1:-1:-1 / analyse=0x3:0x133 / me=umh / subme=9 / psy=1 / psy_rd=1.00:0.15 / mixed_ref=1 / me_range=24 / chroma_me=1 / trellis=2 / 8x8dct=1 / cqm=0 / deadzone=21,11 / fast_pskip=0 / chroma_qp_offset=-3 / threads=24 / lookahead_threads=2 / sliced_threads=0 / nr=0 / decimate=1 / interlaced=0 / bluray_compat=0 / constrained_intra=0 / bframes=3 / b_pyramid=2 / b_adapt=2 / b_bias=0 / direct=3 / weightb=1 / open_gop=0 / weightp=2 / keyint=250 / keyint_min=23 / scenecut=40 / intra_refresh=0 / rc_lookahead=60 / rc=2pass / mbtree=1 / bitrate=2250 / ratetol=1.0 / qcomp=0.60 / qpmin=0 / qpmax=69 / qpstep=4 / cplxblur=20.0 / qblur=0.5 / vbv_maxrate=31250 / vbv_bufsize=31250 / nal_hrd=none / filler=0 / ip_ratio=1.40 / aq=1:1.00
Default                     : Yes
Forced                      : No

Audio
ID                          : 2
Format                      : AAC LC
Format/Info                 : Advanced Audio Codec Low Complexity
Codec ID                    : A_AAC-2
Duration                    : 2 h 22 min
Bit rate                    : 132 kb/s
Channel(s)                  : 2 channels
Channel layout              : L R
Sampling rate               : 48.0 kHz
Frame rate                  : 46.875 FPS (1024 SPF)
Compression mode            : Lossy
Delay relative to video     : -21 ms
Stream size                 : 133 MiB (5%)
Language                    : Danish
Default                     : Yes
Forced                      : No


eazy.png


This is the hidden content, please

Link to comment
Share on other sites

  • Replies 0
  • Created
  • Last Reply

Top Posters In This Topic

  • DaVinci

    1

Popular Days

Top Posters In This Topic

Popular Days

Guest
Unfortunately, your content contains terms that we do not allow. Please edit your content to remove the highlighted words below.
Reply to this topic...

×   Pasted as rich text.   Paste as plain text instead

  Only 75 emoji are allowed.

×   Your link has been automatically embedded.   Display as a link instead

×   Your previous content has been restored.   Clear editor

×   You cannot paste images directly. Upload or insert images from URL.

×
×
  • Create New...