Jump to content

AIR (2023) 720p BluRay x264-KNiVES | ΞΕΧΩΡΙΣΤΟΙ ΥΠΟΤΙΤΛΟΙ


marinara

Recommended Posts

 

MW3wsWc.jpg


Η απίστευτη και επαναστατική συνέργεια ανάμεσα στον τότε πρωτάρη Μάικλ Τζόρνταν και το ανερχόμενο τμήμα καλαθοσφαίρισης της Nike, το οποίο και έφερε την επανάσταση στον κόσμο των σπορ και της σύγχρονης κουλτούρας με το μπραντ του Air Jordan. Η ιστορία καταγράφει το καθοριστικό ρίσκο που πήρε μια αντισυμβατική ομάδα κόντρα σε όλους, το ασυμβίβαστο όραμα μιας μητέρας που γνωρίζει πολύ καλά την αξία του τεράστιου ταλέντου του γιου της, και το φαινόμενο του μπάσκετ που έμελλε να γίνει το μεγαλύτερο όλων των εποχών.


usDrZmS.png

https://www.imdb.com/title/tt16419074/


Είδος ταινίας: Drama, Sport
Σκηνοθεσία: Ben Affleck
Σενάριο: Alex Convery
Ηθοποιοί: Matt Damon, Jason Bateman, Ben Affleck
Μετάφραση:  Σταυρούλα Σοκόλη
Διάρκεια: 111'

 

3sZwobQ.png

 

 

General
Unique ID                      : 255127109974607239289907672107938558320 (0xBFEFB1AEBC5F45E8A938E6529C793170)
Complete name                  : O:\Air.2023.720p.BluRay.x264-KNiVES.mkv
Format                         : Matroska
Format version                 : Version 4
File size                      : 5.27 GiB
Duration                       : 1 h 51 min
Overall bit rate               : 6 760 kb/s
Encoded date                   : UTC 2023-09-05 22:54:08
Writing application            : mkvmerge v78.0 ('Running') 64-bit
Writing library                : libebml v1.4.4 + libmatroska v1.7.1
Cover                          : Yes
Attachments                    : cover.jpg

Video
ID                             : 1
Format                         : AVC
Format/Info                    : Advanced Video Codec
Format profile                 : High@L4.1
Format settings                : CABAC / 8 Ref Frames
Format settings, CABAC         : Yes
Format settings, Reference fra : 8 frames
Codec ID                       : V_MPEG4/ISO/AVC
Duration                       : 1 h 51 min
Bit rate                       : 6 294 kb/s
Width                          : 1 280 pixels
Height                         : 694 pixels
Display aspect ratio           : 1.85:1
Frame rate mode                : Constant
Frame rate                     : 23.976 (24000/1001) FPS
Color space                    : YUV
Chroma subsampling             : 4:2:0
Bit depth                      : 8 bits
Scan type                      : Progressive
Bits/(Pixel*Frame)             : 0.295
Stream size                    : 4.91 GiB (93%)
Writing library                : x264 core 164 r3107 a8b68eb
Encoding settings              : cabac=1 / ref=8 / deblock=1:-3:-3 / analyse=0x3:0x133 / me=umh / subme=9 / psy=1 / psy_rd=1.00:0.00 / mixed_ref=1 / me_range=16 / chroma_me=1 / trellis=2 / 8x8dct=1 / cqm=0 / deadzone=21,11 / fast_pskip=0 / chroma_qp_offset=-2 / threads=22 / lookahead_threads=1 / sliced_threads=0 / nr=0 / decimate=1 / interlaced=0 / bluray_compat=0 / constrained_intra=0 / bframes=3 / b_pyramid=2 / b_adapt=2 / b_bias=0 / direct=3 / weightb=1 / open_gop=0 / weightp=2 / keyint=250 / keyint_min=23 / scenecut=40 / intra_refresh=0 / rc_lookahead=60 / rc=crf / mbtree=1 / crf=14.0 / qcomp=0.60 / qpmin=0 / qpmax=69 / qpstep=4 / ip_ratio=1.40 / aq=1:1.00
Language                       : English
Default                        : Yes
Forced                         : No

Audio
ID                             : 2
ID in the original source medi : 4352 (0x1100)
Format                         : AC-3
Format/Info                    : Audio Coding 3
Commercial name                : Dolby Digital
Codec ID                       : A_AC3
Duration                       : 1 h 51 min
Bit rate mode                  : Constant
Bit rate                       : 448 kb/s
Channel(s)                     : 6 channels
Channel layout                 : L R C LFE Ls Rs
Sampling rate                  : 48.0 kHz
Frame rate                     : 31.250 FPS (1536 SPF)
Compression mode               : Lossy
Stream size                    : 358 MiB (7%)
Language                       : English
Service kind                   : Complete Main
Default                        : Yes
Forced                         : No
Original source medium         : Blu-ray

 

HZnuGLA.png

 

EASYBYTEZ|RAPIDGATOR


This is the hidden content, please

Edited by marinara
Link to comment
Share on other sites

  • Replies 0
  • Created
  • Last Reply

Top Posters In This Topic

  • marinara

    1

Popular Days

Top Posters In This Topic

Popular Days

Guest
Unfortunately, your content contains terms that we do not allow. Please edit your content to remove the highlighted words below.
Reply to this topic...

×   Pasted as rich text.   Paste as plain text instead

  Only 75 emoji are allowed.

×   Your link has been automatically embedded.   Display as a link instead

×   Your previous content has been restored.   Clear editor

×   You cannot paste images directly. Upload or insert images from URL.

×
×
  • Create New...