Jump to content

THE 100 CANDLES GAME (2020) 1080p BluRay DTS-HD MA 5.1 x264-EVO | ΞΕΧΩΡΙΣΤΟΙ ΥΠΟΤΙΤΛΟΙ


marinara

Recommended Posts

 

r2oAOrD.jpg


Μια παρέα φίλων θα πρέπει να αντιμετωπίσει τους φόβους της με ένα τρομακτικό παιχνίδι. Θα πρέπει να κάτσουν σε έναν κύκλο φτιαγμένο από 100 κεριά, να παίρνουν ένα και να λένε τη δική τους τρομακτική ιστορία. Με κάθε ιστορία, με κάθε κερί, περίεργα φαινόμενα αρχίσουν να συμβαίνουν.


usDrZmS.png

https://www.imdb.com/title/tt12739994/


Είδος ταινίας: Horror
Σκηνοθεσία: Nicolas Onetti, Victor Catala, Brian Deane
Σενάριο: Linda Bosch, Mauro Croche, Oliver Lee Garland
Ηθοποιοί: Magui Bravi, Clara Kovacic, James Wright
Μετάφραση: george2566
Διάρκεια: 100'

 

3sZwobQ.png

 

General
Unique ID                      : 38127862180226199163593142695879458297 (0x1CAF28BDFA68ECB89C1FA30C0E0F3DF9)
Complete name                  : O:\The.100.Candles.Game.2020.1080p.Bluray.DTS-HD.MA.5.1.X264-EVO.mkv
Format                         : Matroska
Format version                 : Version 4
File size                      : 11.5 GiB
Duration                       : 1 h 41 min
Overall bit rate mode          : Variable
Overall bit rate               : 16.2 Mb/s
Encoded date                   : UTC 2021-05-28 06:49:52
Writing application            : mkvmerge v35.0.0 ('All The Love In The World') 64-bit
Writing library                : libebml v1.3.9 + libmatroska v1.5.2

Video
ID                             : 1
Format                         : AVC
Format/Info                    : Advanced Video Codec
Format profile                 : High@L4.1
Format settings                : CABAC / 4 Ref Frames
Format settings, CABAC         : Yes
Format settings, Reference fra : 4 frames
Codec ID                       : V_MPEG4/ISO/AVC
Duration                       : 1 h 41 min
Bit rate                       : 12.0 Mb/s
Width                          : 1 920 pixels
Height                         : 800 pixels
Display aspect ratio           : 2.40:1
Frame rate mode                : Constant
Frame rate                     : 24.000 FPS
Color space                    : YUV
Chroma subsampling             : 4:2:0
Bit depth                      : 8 bits
Scan type                      : Progressive
Bits/(Pixel*Frame)             : 0.326
Stream size                    : 8.51 GiB (74%)
Writing library                : x264 core 159
Encoding settings              : cabac=1 / ref=2 / deblock=1:0:0 / analyse=0x3:0x113 / me=hex / subme=6 / psy=1 / psy_rd=1.00:0.00 / mixed_ref=1 / me_range=16 / chroma_me=1 / trellis=1 / 8x8dct=1 / cqm=0 / deadzone=21,11 / fast_pskip=1 / chroma_qp_offset=-2 / threads=24 / lookahead_threads=4 / sliced_threads=0 / nr=0 / decimate=1 / interlaced=0 / bluray_compat=0 / constrained_intra=0 / bframes=3 / b_pyramid=2 / b_adapt=1 / b_bias=0 / direct=1 / weightb=1 / open_gop=0 / weightp=1 / keyint=250 / keyint_min=24 / scenecut=40 / intra_refresh=0 / rc_lookahead=30 / rc=2pass / mbtree=1 / bitrate=12000 / ratetol=1.0 / qcomp=0.60 / qpmin=0 / qpmax=69 / qpstep=4 / cplxblur=20.0 / qblur=0.5 / ip_ratio=1.40 / aq=1:1.00
Default                        : Yes
Forced                         : No

Audio #1
ID                             : 2
Format                         : AC-3
Format/Info                    : Audio Coding 3
Commercial name                : Dolby Digital
Codec ID                       : A_AC3
Duration                       : 1 h 41 min
Bit rate mode                  : Constant
Bit rate                       : 640 kb/s
Channel(s)                     : 6 channels
Channel layout                 : L R C LFE Ls Rs
Sampling rate                  : 48.0 kHz
Frame rate                     : 31.250 FPS (1536 SPF)
Compression mode               : Lossy
Stream size                    : 465 MiB (4%)
Language                       : English
Service kind                   : Complete Main
Default                        : Yes
Forced                         : No

Audio #2
ID                             : 3
Format                         : DTS XLL
Format/Info                    : Digital Theater Systems
Commercial name                : DTS-HD Master Audio
Codec ID                       : A_DTS
Duration                       : 1 h 41 min
Bit rate mode                  : Variable
Bit rate                       : 3 580 kb/s
Channel(s)                     : 6 channels
Channel layout                 : C L R Ls Rs LFE
Sampling rate                  : 48.0 kHz
Frame rate                     : 93.750 FPS (512 SPF)
Bit depth                      : 24 bits
Compression mode               : Lossless
Stream size                    : 2.54 GiB (22%)
Language                       : English
Default                        : No
Forced                         : No

 

N6B5Siz.png

 

EASYBYTEZ|RAPIDGATOR

             

This is the hidden content, please

Link to comment
Share on other sites

  • Replies 0
  • Created
  • Last Reply

Top Posters In This Topic

  • marinara

    1

Popular Days

Top Posters In This Topic

Popular Days

Guest
Unfortunately, your content contains terms that we do not allow. Please edit your content to remove the highlighted words below.
Reply to this topic...

×   Pasted as rich text.   Paste as plain text instead

  Only 75 emoji are allowed.

×   Your link has been automatically embedded.   Display as a link instead

×   Your previous content has been restored.   Clear editor

×   You cannot paste images directly. Upload or insert images from URL.

×
×
  • Create New...