Jump to content

I AM ZLATAN / JAG AR ZLATAN (2021) 720p BluRay DD5.1 x264-GrHD | ΞΕΧΩΡΙΣΤΟΙ ΥΠΟΤΙΤΛΟΙ


Dalton

Recommended Posts

  


y2qDboV.jpg


gGH2Dbn.png?3

Ελληνικός Τίτλος: -
Είδος ταινίας: Biography, Drama, Sport
Σκηνοθεσία: Jens Sjogren
Σενάριο: Jakob Beckman, Zlatan Ibrahimovic, David Lagercrantz
Ηθοποιοί: Granit Rushiti, Dominic Andersson Bajraktati, Cedomir Glisovic
Μετάφραση: Άγνωστος

 

dbzzNXu.png?2

Με καταγωγή από βόσνιους γονείς, το ποδόσφαιρο ήταν η λύτρωση του νεαρού σουηδού Ζλάταν Ιμπραΐμοβιτς, όπου το ιδιαίτερο ταλέντο και η αυτάρκειά του τον εκτίναξαν, ενάντια σε όλες τις πιθανότητες, στην κορυφή του διεθνούς ποδοσφαίρου, φτάνοντας να παίζει για ομάδες όπως ο Άγιαξ, η Γιουβέντους, η Ίντερ, η Μίλαν, η Μπαρτσελόνα, η Παρί Σεν Ζερμέν και η Μάντσεστερ Γιουνάιτεντ.


IMDB.png

 


cTjVAcr.jpg


uoJL54u.png?2

General
Format                      : Matroska
Format version              : Version 4
File size                   : 4.27 GiB
Duration                    : 1 h 43 min
Overall bit rate            : 5 923 kb/s
Frame rate                  : 24.000 FPS
Movie name                  : Jag.Ar.Zlatan.2021
Encoded date                : 2023-09-28 16:25:06 UTC
Writing application         : mkvmerge v46.0.0 ('No Deeper Escape') 64-bit
Writing library             : libebml v1.3.10 + libmatroska v1.5.2
Cover                       : Yes
Attachments                 : cover_land.jpg

Video
ID                          : 1
Format                      : AVC
Format/Info                 : Advanced Video Codec
Format profile              : High@L4.1
Format settings             : CABAC / 5 Ref Frames
Format settings, CABAC      : Yes
Format settings, Reference  : 5 frames
Codec ID                    : V_MPEG4/ISO/AVC
Duration                    : 1 h 43 min
Bit rate                    : 5 500 kb/s
Width                       : 1 280 pixels
Height                      : 534 pixels
Display aspect ratio        : 2.40:1
Frame rate mode             : Constant
Frame rate                  : 24.000 FPS
Color space                 : YUV
Chroma subsampling          : 4:2:0
Bit depth                   : 8 bits
Scan type                   : Progressive
Bits/(Pixel*Frame)          : 0.335
Stream size                 : 3.80 GiB (89%)
Writing library             : x264 core 164 r3100 ed0f7a6
Encoding settings           : cabac=1 / ref=5 / deblock=1:0:0 / analyse=0x3:0x113 / me=umh / subme=8 / psy=1 / psy_rd=1.00:0.00 / mixed_ref=1 / me_range=16 / chroma_me=1 / trellis=2 / 8x8dct=1 / cqm=0 / deadzone=21,11 / fast_pskip=0 / chroma_qp_offset=-2 / threads=12 / lookahead_threads=2 / sliced_threads=0 / nr=0 / decimate=1 / interlaced=0 / bluray_compat=0 / constrained_intra=0 / bframes=3 / b_pyramid=2 / b_adapt=1 / b_bias=0 / direct=3 / weightb=1 / open_gop=0 / weightp=2 / keyint=240 / keyint_min=24 / scenecut=40 / intra_refresh=0 / rc_lookahead=50 / rc=abr / mbtree=1 / bitrate=5500 / ratetol=1.0 / qcomp=0.60 / qpmin=0 / qpmax=69 / qpstep=4 / vbv_maxrate=62500 / vbv_bufsize=78125 / nal_hrd=none / filler=0 / ip_ratio=1.40 / aq=1:1.00
Default                     : Yes
Forced                      : No
Color range                 : Limited
Color primaries             : BT.709
Transfer characteristics    : BT.709
Matrix coefficients         : BT.709

Audio
ID                          : 2
Format                      : AC-3
Format/Info                 : Audio Coding 3
Commercial name             : Dolby Digital
Codec ID                    : A_AC3
Duration                    : 1 h 43 min
Bit rate mode               : Constant
Bit rate                    : 640 kb/s
Channel(s)                  : 6 channels
Channel layout              : L R C LFE Ls Rs
Sampling rate               : 48.0 kHz
Frame rate                  : 31.250 FPS (1536 SPF)
Compression mode            : Lossy
Delay relative to video     : -5 ms
Stream size                 : 472 MiB (11%)
Title                       : Surround
Language                    : Swedish
Service kind                : Complete Main
Default                     : Yes
Forced                      : No

Text
ID                          : 3
Format                      : UTF-8
Codec ID                    : S_TEXT/UTF8
Codec ID/Info               : UTF-8 Plain Text
Duration                    : 1 h 34 min
Bit rate                    : 72 b/s
Frame rate                  : 0.160 FPS
Count of elements           : 908
Stream size                 : 50.3 KiB (0%)
Language                    : Greek
Default                     : Yes
Forced                      : No


Πατήστε έπανω στο Banner για Εγγραφή ή για Αγορά Premium !!!

lEtufzy.png / fwvE84D.png


This is the hidden content, please

 

Link to comment
Share on other sites

  • Replies 0
  • Created
  • Last Reply

Top Posters In This Topic

  • Dalton

    1

Popular Days

Top Posters In This Topic

Guest
Unfortunately, your content contains terms that we do not allow. Please edit your content to remove the highlighted words below.
Reply to this topic...

×   Pasted as rich text.   Paste as plain text instead

  Only 75 emoji are allowed.

×   Your link has been automatically embedded.   Display as a link instead

×   Your previous content has been restored.   Clear editor

×   You cannot paste images directly. Upload or insert images from URL.

×
×
  • Create New...